#TITLE:Gimme More;
#SUBTITLE:;
#ARTIST:Britney Spears;
#TITLETRANSLIT:;
#SUBTITLETRANSLIT:;
#ARTISTTRANSLIT:;
#CREDIT:;
#BANNER:gimme_more2.PNG;
#BACKGROUND:gimme_more1.PNG;
#LYRICSPATH:;
#CDTITLE:;
#MUSIC:gimme_more.mp3;
#OFFSET:-1.600;
#SAMPLESTART:65.556;
#SAMPLELENGTH:16.760;
#SELECTABLE:YES;
#BPMS:0.000=113.320,237.000=399.398;
#STOPS:;
#BGCHANGES:;
// cache tags:
#FIRSTBEAT:0.000;
#LASTBEAT:259.000;
#SONGFILENAME:Songs/Music/Gimme More/Gimmemore.sm;
#HASMUSIC:1;
#HASBANNER:1;
#MUSICLENGTH:244.331;
// end cache tags

//---------------dance-single - ----------------
#NOTES:
     dance-single:
     :
     Beginner:
     1:
     0.149,0.152,0.127,0.156,0.000,185.000,31.000,38.000,0.000,0.000:
1000
1000
1000
1000
,
0001
1000
0001
0001
,
1000
0001
1000
1000
,
0100
0010
0100
0100
,
0010
0100
0010
0010
,
2000
3000
0002
0003
,
0200
0300
0020
0030
,
1000
0001
1000
0001
,
0100
0010
0100
0010
,
1000
1000
0001
0001
,
1000
0002
0000
0003
,
0100
0100
1000
0001
,
0010
0010
0100
1000
,
0001
1000
0100
0100
,
0010
0200
0000
0000
,
0300
0100
0001
0001
,
1000
0100
0010
0001
,
2000
3200
0320
0032
,
0003
1001
1001
0100
,
0010
0110
0110
1000
,
0001
1001
0110
0000
,
2000
0000
0000
3000
,
0002
0000
0000
0003
,
0200
0000
0300
0020
,
0030
2000
3002
2003
,
3001
0001
1001
1000
,
1001
0001
0001
1001
,
0100
0010
0110
0100
,
0110
0010
0010
0110
,
1000
0001
1001
0100
,
0110
1000
0001
1001
,
2000
3000
0002
0003
,
0200
0300
0020
0030
,
1000
1000
0001
0001
,
1000
0002
0000
0003
,
0100
0100
1000
0001
,
0010
0010
0100
1000
,
0001
1000
0100
0100
,
0010
0200
0000
0000
,
0300
0100
0001
0001
,
1000
0100
0010
0001
,
2000
3200
0320
0032
,
0003
1001
1001
0100
,
0010
0110
0110
1000
,
0001
1001
0110
0000
,
2000
0000
0000
3000
,
0002
0000
0000
0003
,
0200
0000
0300
0020
,
0030
2000
3002
2003
,
3001
0001
1001
1000
,
1001
0001
0001
1001
,
0100
0010
0110
0100
,
0110
0010
0010
0110
,
1000
0001
1001
0100
,
0110
1000
0001
1001
,
2000
3000
0002
0003
,
0200
0300
0020
0030
,
0110
0000
0000
0000
;

//---------------dance-single - ----------------
#NOTES:
     dance-single:
     :
     Easy:
     1:
     0.167,0.186,0.168,0.070,0.000,228.000,41.000,17.000,0.000,0.000:
1000
1000
1000
1000
,
1000
0001
1000
1001
,
1000
0001
1000
1001
,
0010
1000
1010
1010
,
0010
0001
0011
0011
,
0110
0110
1000
0001
,
1001
1000
0100
0010
,
0001
0001
0010
0100
,
1000
1000
0001
1000
,
1001
2000
3200
0320
,
0032
0000
0000
0003
,
0000
0001
1001
0001
,
1000
0001
1000
0001
,
1001
1000
0100
0010
,
0001
0001
0010
0100
,
1000
0001
1001
1000
,
0001
1001
1001
0100
,
0010
0100
1000
0100
,
0010
0001
0001
1001
,
2000
0001
0001
3001
,
0002
1000
1000
0003
,
1000
0000
0001
0000
1000
1000
1000
0000
,
0001
0000
1000
0000
0001
0001
0001
0000
,
2000
0001
0001
3001
,
0002
1000
1000
1003
,
0010
0010
1001
0100
,
1001
0010
0010
1001
,
1000
1000
0110
0001
,
0110
1000
1000
0110
,
1000
0100
0010
0001
,
0010
0100
1000
1001
,
0010
0000
1000
0000
,
0100
0001
0001
1001
,
0000
0000
0200
0320
,
0032
0000
0000
0003
,
1010
0001
1001
0001
,
1000
0001
1000
0001
,
1001
1000
0100
0010
,
0001
0001
0010
0100
,
1000
0001
1001
1000
,
0001
1001
1001
0100
,
0010
0100
1000
0100
,
0010
0001
0001
1001
,
2000
0001
0001
3001
,
0002
1000
1000
0003
,
1000
0000
0001
0000
1000
1000
1000
0000
,
0001
0000
1000
0000
0001
0001
0001
0000
,
2000
0001
0001
3001
,
0002
1000
1000
1003
,
0010
0010
1001
0100
,
1001
0010
0010
1001
,
1000
1000
0110
0001
,
0110
1000
1000
0110
,
1000
0100
0010
0001
,
0010
0100
1000
1001
,
0010
0000
1000
0000
,
0100
0001
0001
1001
,
0100
0010
0100
0010
,
1000
0000
0001
0000
1000
0001
1000
0000
,
1001
2002
0000
0000
,
0000
0000
0000
0000
,
0000
0000
0000
0000
,
0000
0000
0000
0000
,
0000
0000
0000
0000
,
0000
0000
0000
3003
;

//---------------dance-single - ----------------
#NOTES:
     dance-single:
     :
     Medium:
     1:
     0.286,0.370,0.311,0.475,0.000,298.000,76.000,116.000,0.000,19.000:
1100
0011
1010
0101
,
1000
0000
0001
0000
1000
1000
1000
0000
,
0001
0000
1000
0000
0001
0001
0001
0000
,
0200
0302
2003
3020
,
0030
1000
0001
1000
,
0001
2002
3003
1001
,
1000
0100
0010
0001
0100
0010
0010
1000
,
1000
1001
0001
0001
,
2000
0000
3200
0000
0310
0001
1000
0000
,
2002
0100
0100
0010
,
0100
0010
0010
3103
,
1001
0110
0100
0010
,
1000
0000
0001
0001
0000
0000
1000
1000
,
0000
0101
0000
0101
0000
1000
0001
0100
,
0010
0110
2000
0020
,
3031
0000
1001
0000
0100
0010
1000
0000
,
0001
0100
0010
0010
0000
1000
1100
0000
,
2000
3002
0103
0100
,
0020
2000
0200
3330
,
2000
0100
0001
3100
,
0002
0010
1000
0013
,
1000
1000
1000
0001
1000
0001
0001
0200
,
0320
0230
0320
0230
0320
0030
2000
3000
,
0002
2000
3003
0000
0000
2000
0002
3003
,
0000
0010
0010
1000
0001
0100
0010
1000
,
2002
3003
2002
3003
0110
0000
2002
3003
,
0110
0000
2020
3030
0202
0303
1001
0000
,
2000
3200
0320
0032
1003
0000
1001
1001
,
0220
0330
1000
0001
0100
0010
1001
0000
,
1010
1010
0101
0101
2002
3003
0110
0110
,
2020
3030
0101
0101
0110
1010
2200
3300
,
1000
1000
0001
0001
0000
0000
0100
0010
,
0000
0000
0020
0230
0302
1003
1001
0000
,
2002
0100
0100
0010
,
0100
0010
0010
3103
,
1001
0110
0100
0010
,
1000
0000
0001
0001
0000
0000
1000
1000
,
0000
0101
0000
0101
0000
1000
0001
0100
,
0010
0110
2000
0020
,
3031
0000
1001
0000
0100
0010
1000
0000
,
0001
0100
0010
0010
0000
1000
1100
0000
,
2000
3002
0103
0100
,
0020
2000
0200
3330
,
2000
0100
0001
3100
,
0002
0010
1000
0013
,
1000
1000
1000
0001
1000
0001
0001
0200
,
0320
0230
0320
0230
0320
0030
2000
3000
,
0002
2000
3003
0000
0000
2000
0002
3003
,
0000
0010
0010
1000
0001
0100
0010
1000
,
2002
3003
2002
3003
0110
0000
2002
3003
,
0110
0000
2020
3030
0202
0303
1001
0000
,
2000
3200
0320
0032
1003
0000
1001
1001
,
0220
0330
1000
0001
0100
0010
1001
0000
,
1010
1010
0101
0101
2002
3003
0110
0110
,
2020
3030
0101
0101
0110
1010
2200
3300
,
1000
1000
0001
0001
0000
0000
0100
0010
,
0000
0000
0020
0230
0302
1003
1001
0000
,
2000
3020
0230
0302
,
2003
3020
0230
0302
2003
3002
0203
0320
,
2032
0000
0000
0000
,
0000
0000
0000
0000
,
0000
0000
0000
0000
,
0000
0000
0000
0000
,
0000
0000
0000
0000
,
0000
0000
3003
0000
;
